올림푸스 펜 E-P2

Posted by 하루하루 추억보관소
2010. 5. 20. 16:01 영상장비 및 교육/촬영기기
반응형
5월 2일 코엑스 사진영상기자재전에서 가져간 SD메모리에 촬영해본 펜 E-P2의 영상과 사진
(분실방지로 줄에 묶여있어 주위만 휘둘러봄)

마이크로포서드 방식 카메라가 가지는 휴대성과 성능의 접점 그리고 동영상 촬영까지 가능한 편리함이 가장 큰 매력이랄수 있습니다.

펜E-P2 카다로그

 

E-P1에 비해 동영상은 크게 달라진점은 없습니다.
1280*720 30fps mjpeg 코덱

호기심에 현장에서 살짝 촬영해봄..




E-P1과 다르게 전자식 뷰파인더가 장착가능한 형태로 출시되었습니다.
그외 아트필터가 두가지 더들어간정도..

촬영된 영상 파일정보


D:\jw\994OLYMP\P5020019.AVI
   General
      Complete name : D:\jw\994OLYMP\P5020019.AVI
      Format : AVI
      Format/Info : Audio Video Interleave
      File size : 24.8 MiB
      Duration : 6s 167ms
      Overall bit rate : 33.7 Mbps
      Mastered date : Sun May 02 12:31:23 2010
      Writing application : OLYMPUS E-P2
      Writing library : OLYMDigital CameraOLYMPUS DIGITAL CAMERA
   Video #0
      ID : 0
      Format : M-JPEG
      Codec ID : MJPG
      Duration : 6s 167ms
      Bit rate : 32.3 Mbps
      Width : 1 280 pixels
      Height : 720 pixels
      Display aspect ratio : 16:9
      Frame rate : 30.000 fps
      Resolution : 24 bits
      Bits/(Pixel*Frame) : 1.167
      Stream size : 23.7 MiB (96%)
   Audio
      Format : PCM
      Format settings, Endianness : Little
      Format settings, Sign : Unsigned
      Codec ID : 1
      Codec ID/Hint : Microsoft
      Duration : 6s 167ms
      Bit rate mode : Constant
      Bit rate : 1 411.2 Kbps
      Channel(s) : 2 channels
      Sampling rate : 44.1 KHz
      Resolution : 16 bits
      Stream size : 1.04 MiB (4%)
      Interleave, duration : 881 ms (26.43 video frames)
      Interleave, preload duration : 1000 ms


블로그의 관련글
2009/12/02 - [영상장비 자료/촬영기기] - 올림푸스 펜 E-P2 예약판매중이네요..
2009/09/01 - [영상장비 자료/촬영기기] - 광화문 - 올림푸스 펜 E-P1 동영상 촬영
2009/08/25 - [사람과사람/안산 풍경과 일상] - 성호공원 산책 - 올림푸스 E-P1 사진찍어보기
2009/08/19 - [영상장비 자료/촬영기기] - 올림푸스 펜 E-P1

반응형



Flag Counter


이 댓글을 비밀 댓글로